#TITLE:Rose;
#SUBTITLE:DeadMaster;
#ARTIST:9You;
#TITLETRANSLIT:;
#SUBTITLETRANSLIT:;
#ARTISTTRANSLIT:;
#CREDIT:;
#BANNER:bn.jpg;
#BACKGROUND:bg.jpg;
#LYRICSPATH:;
#CDTITLE:cd.png;
#MUSIC:rose.mp3;
#OFFSET:-0.499;
#SAMPLESTART:34.894;
#SAMPLELENGTH:12.000;
#SELECTABLE:YES;
#BPMS:0.000=174.446;
#STOPS:;
#BGCHANGES:;
// cache tags:
#FIRSTBEAT:0.250;
#LASTBEAT:361.000;
#SONGFILENAME:Songs/Super Dancer Online mania/Rose/rose.sm;
#HASMUSIC:1;
#HASBANNER:1;
#MUSICLENGTH:126.466;
// end cache tags

//---------------dance-single - ----------------
#NOTES:
     dance-single:
     :
     Medium:
     1:
     1.000,1.000,1.000,0.040,1.000,723.000,323.000,5.000,0.000,100.000:  // measure 1
0000
0001
0100
0000
0101
0000
0000
0001
0000
0001
0000
0000
0000
0000
1000
0000
,  // measure 2
1000
0000
1000
0000
0000
1000
0000
1000
0000
1000
0000
0000
0000
0000
0000
0001
,  // measure 3
0000
0001
0000
0001
0000
0001
0000
0001
0000
0001
0000
0000
0000
0000
0000
0010
,  // measure 4
0000
0010
0010
0000
0000
0010
0000
0010
0000
0010
0000
0000
0000
0001
0100
0000
,  // measure 5
0101
0000
0010
0000
0000
0010
0000
0010
0000
0000
0010
0000
0000
1001
0000
0000
,  // measure 6
0000
0000
0110
0000
0000
0101
0000
0000
0000
0000
1001
0000
0000
0110
0000
0000
,  // measure 7
1001
0110
1001
0110
,  // measure 8
1001
0110
0101
1010
0101
0000
0110
1001
,  // measure 9
1001
0000
0110
0110
1001
0000
0110
0000
,  // measure 10
1001
0110
1001
0000
0110
0101
1001
0110
,  // measure 11
1001
0000
0110
0000
1001
0000
0110
0000
0101
0000
0000
0000
1000
0010
0000
0000
,  // measure 12
0101
0000
0101
0000
1010
0000
1001
0000
0110
0000
0101
0000
1001
0000
0100
0010
,  // measure 13
0101
0000
1001
0000
0000
0110
0001
1000
0110
0000
0000
0000
1101
0010
0000
0000
,  // measure 14
1001
0000
0110
0000
0101
0000
1101
0000
0000
0110
0000
0101
0000
1011
0000
0101
,  // measure 15
0100
0001
0000
0000
1010
1001
0000
0000
0101
0000
0000
0000
0110
0000
0000
0001
,  // measure 16
1000
0001
1000
0000
0110
0000
0101
0000
1001
0000
0110
0000
1001
0000
0110
0000
,  // measure 17
1001
0000
0000
0110
0000
0101
0000
1001
0000
0000
0000
0101
0000
0000
0000
0101
,  // measure 18
0000
0000
1010
0000
0101
0000
1001
0000
0110
0000
0101
0000
0101
0000
0011
1000
,  // measure 19
0000
1001
0000
0000
0110
0000
0101
0000
1001
0000
0000
0000
0110
0000
0000
0001
,  // measure 20
1000
0001
0100
0000
0101
0000
1001
0000
0110
0001
1000
0000
0110
0000
1101
0000
,  // measure 21
0111
0000
0000
0000
1001
0001
0100
0000
0110
0000
0000
0000
1001
0000
0000
0000
,  // measure 22
0110
0000
0110
0000
0000
0000
0001
1000
0000
0010
0000
0010
0000
0000
0000
0100
,  // measure 23
0000
0001
0000
0000
0001
0000
0000
0000
0010
0000
0100
1000
0000
0110
0000
0011
,  // measure 24
0000
0000
0011
0000
0100
1000
0100
0010
0000
0001
0010
0000
0001
0010
0100
0000
,  // measure 25
0010
0000
0001
0010
0000
0100
1000
0100
0010
0001
0010
1100
0000
0110
0001
0010
,  // measure 26
0000
0100
1000
0000
0100
0010
0000
0001
0010
0001
0010
0000
0100
1000
0100
0000
,  // measure 27
0010
0001
0010
0000
0011
0100
0000
0010
0000
0011
0000
0100
1000
0100
0000
0010
,  // measure 28
0001
0010
0000
0011
0100
0000
2000
0100
0010
3000
0010
0000
0001
0010
0100
1000
,  // measure 29
0000
0100
0010
0000
0011
0000
0100
0010
0001
0010
0000
0100
1000
0000
0100
0010
,  // measure 30
0001
0010
0001
0000
0010
0100
1000
0000
0100
0010
0000
0011
0000
0001
0010
0100
,  // measure 31
0000
0010
0001
0010
0100
2000
0100
0010
3000
0011
0000
0001
0010
0100
1000
0000
,  // measure 32
0110
0000
0001
0010
0000
0100
1000
0110
0000
0011
0000
0001
0000
0100
0000
0010
,  // measure 33
0001
0100
1000
0000
0100
0010
0001
0010
0000
0001
0010
0000
0100
1000
0000
0100
,  // measure 34
0010
0001
0010
0100
1000
0000
0110
0001
0010
0000
0100
1000
0000
0100
0010
0001
,  // measure 35
0010
0001
0000
0010
0100
1000
0100
0010
0000
0000
0011
0000
0011
0000
0100
0000
,  // measure 36
0010
0011
0000
0100
1000
0100
0010
0001
0010
0100
1000
0000
0110
0000
0000
0011
,  // measure 37
0000
0100
0010
0001
0010
0000
0100
1000
0100
0010
0000
0011
0000
2100
0000
0100
,  // measure 38
0010
3001
0010
0000
0100
1000
0000
0110
0000
0001
0010
0100
0000
1000
0111
0000
,  // measure 39
0000
0011
0000
0100
0010
0000
0000
0002
0000
0000
0000
0000
0000
0000
0000
0000
,  // measure 40
0000
0000
0000
0000
,  // measure 41
0000
0000
0003
0010
0000
0010
0000
0010
0000
0010
0000
0010
0010
0000
0010
0000
,  // measure 42
0010
0000
0010
0000
0010
0010
0000
0010
0000
0010
0000
0010
0000
0010
0010
0000
,  // measure 43
0010
0000
0001
0100
0101
0000
1001
0000
0000
1010
0000
0000
0000
1000
0001
0000
,  // measure 44
0000
0000
1101
0000
0000
0000
0101
0000
0000
0000
0101
0000
0000
0000
0100
0001
,  // measure 45
0000
0000
0000
0101
0000
0000
0000
1010
0000
0000
0000
1010
0000
0000
0000
1010
,  // measure 46
0000
0000
1000
0010
0000
0000
1000
0010
0000
0000
0000
1010
0000
0000
1101
0000
,  // measure 47
0000
0000
1101
0000
0000
0000
1101
0000
0000
1111
0000
1111
0000
1001
0000
0110
,  // measure 48
0000
1101
0000
0001
0000
1111
0000
1111
0000
1001
0000
0110
0000
1111
0000
1101
,  // measure 49
0000
1001
0000
0111
0000
0101
0001
1000
0000
0110
1001
0000
0111
0000
0001
1000
,  // measure 50
0000
0110
0110
0000
1001
0000
0110
0000
1001
0000
0110
0000
1001
0000
1011
0000
,  // measure 51
0011
0100
0101
0000
1001
0000
0110
0000
1101
0000
1001
0000
0110
0000
1111
0000
,  // measure 52
1101
1000
0001
0110
0000
0000
0101
0000
1101
1001
0000
1001
0000
0110
0000
0110
,  // measure 53
0000
1001
0000
1001
0000
0110
0000
1101
0000
0110
0000
1001
0000
0110
0000
1001
,  // measure 54
0000
0110
0000
1001
0000
1001
0000
0110
0000
1001
0000
0110
0000
0101
0000
0101
,  // measure 55
0000
0101
0000
1010
0000
1001
0000
0101
0000
0101
0000
0111
0000
0111
0000
1110
,  // measure 56
0000
1110
0000
1110
0000
1101
1101
0000
0000
0111
0111
0000
0111
0000
1110
0000
,  // measure 57
0010
1100
1110
0000
1101
0000
1101
0000
0111
0000
0111
0000
0111
0000
1111
0000
,  // measure 58
1110
1110
1101
0111
0111
0111
0111
1011
,  // measure 59
1010
1110
1110
1101
0111
0111
1111
1110
,  // measure 60
1110
0000
0110
0000
0111
0011
0100
0000
1111
1111
0000
0000
1110
0000
1110
0000
,  // measure 61
1110
0000
1101
0000
0111
0000
0111
0011
1100
1111
0000
1110
0000
1110
0000
1111
,  // measure 62
0000
0111
0000
0111
0000
1111
0000
1110
0000
1110
0000
1110
0000
1110
0000
1110
,  // measure 63
0000
1110
0000
1111
0000
0000
1111
0000
0000
0000
0000
0000
1111
0000
0000
0000
,  // measure 64
0000
1111
0000
0000
0000
0000
0000
0000
,  // measure 65
0000
0000
1111
0000
0000
0000
0111
0000
0000
0000
0000
0000
0000
1110
0000
0000
,  // measure 66
0000
0000
0000
1110
0000
0000
0000
0000
0000
0000
0000
0000
0000
0000
0000
0111
,  // measure 67
0000
0111
0000
1110
0000
0000
1110
0000
,  // measure 68
0000
0000
1110
0000
0000
0000
0000
0000
0000
0000
0000
0000
0000
0000
0000
0111
,  // measure 69
0000
0000
0000
0000
0000
0111
0000
0000
0000
0000
0000
0111
0000
0000
0000
0000
,  // measure 70
0000
0111
0000
0000
0000
0000
0000
0000
1110
0000
0000
0000
0000
0000
0110
0000
,  // measure 71
0000
0110
0000
0000
0001
0110
1000
0000
0100
0010
0001
0010
0000
0000
0111
1000
,  // measure 72
0100
0010
0000
0000
0011
0001
0010
0000
1100
0000
0100
0010
0001
0010
0000
0001
,  // measure 73
0010
0100
1000
0110
0000
0001
0010
0000
0011
0100
1000
0000
0110
0000
0011
0000
,  // measure 74
0000
0101
0000
0010
0001
0110
1000
0000
0110
0000
0001
0010
0000
0011
0000
0100
,  // measure 75
1000
0100
0010
0000
0011
0000
0001
0010
0100
1000
0000
0100
0010
0001
0010
0100
,  // measure 76
0001
0010
0000
0011
0000
0100
1000
0100
0010
0001
0010
0000
0011
0100
1000
0100
,  // measure 77
0010
0000
0001
0010
0000
0101
0000
0010
0001
0010
0100
0000
0010
0011
0000
0100
,  // measure 78
0010
0000
0001
0110
0000
0011
0100
1000
0000
0110
0000
0100
1010
0000
0011
0000
,  // measure 79
0100
0011
0000
0100
1010
0001
0010
0100
1000
0010
0100
0001
0010
0000
0011
0000
,  // measure 80
1100
0000
0100
0010
0000
0010
0001
0010
0000
0100
0000
0010
0001
0010
0100
1000
,  // measure 81
0100
0010
0000
0011
0000
0001
0010
0100
1000
0100
0010
0001
0010
0000
0100
1000
,  // measure 82
0100
0010
0000
0001
0010
0000
0001
0010
0100
1000
0000
0100
0010
0000
0011
0000
,  // measure 83
0001
0010
0100
0010
0001
0010
0000
0100
1000
0110
0000
0000
0011
0000
0100
0011
,  // measure 84
0000
0000
0011
0100
1000
0100
0010
0000
0001
0010
0011
0000
0100
0000
1010
0000
,  // measure 85
0000
0011
0100
1000
0000
0110
0000
0001
0010
0100
0001
0010
0001
0010
0000
0100
,  // measure 86
1000
0100
0010
0011
0000
0100
0011
0000
0100
1010
0000
0100
0010
0000
0011
0000
,  // measure 87
0001
0010
0000
0011
0000
0100
0020
0000
0000
0000
0000
0030
0000
0010
0000
0000
,  // measure 88
0010
0000
0000
0000
,  // measure 89
0000
0000
0101
0000
0000
0101
0000
0000
0000
0000
0000
1010
0000
0000
0000
0000
,  // measure 90
1000
0010
0000
0000
0000
0000
0000
0000
0000
0000
0000
0101
0000
0000
0000
0000
,  // measure 91
0101
0010
0000
0000
;
